Download
Thunderbirds Are Go S01E11 720p HDTV x264-FiHTV [eztv](2012) DVD Killing Them Softly
Piotruś Pan i Piraci / Peter Pan and the Pirates

Raid 2018 Hindi 720p PreDVDRip x264 AAC [MW]

  • Category Movies
  • Type Bollywood
  • Language Hindi
  • Total size 933.6 MB
  • Uploaded By moviezworldz
  • Downloads 21941
  • Last checked 1 day ago
  • Date uploaded 4 weeks ago
  • Seeders 141
  • Leechers 21

Raid

CrimeDramaThriller

Set in the 80s in Uttar Pradesh, India, Raid is based on the true story of one of the most high profile raids the country has ever known. Amay Patnaik (Ajay Devgn), an upright and no-nonsense Income Tax officer has already been transferred 49 times in the past seven years owing to his idealistic and courageous disposition to uncover tax frauds, hitting hard the pockets of many a big shot. When Patnaik is assigned the case of Tauji, a highly influential and feared man in Uttar Pradesh, little does he know that his unerring determination to bring Tauji to justice would culminate in the longest and most challenging raid of his career as also the history of the Income Tax Department of India. Would Amay succeed in the face of an increasingly stubborn and belligerent Tauji forms the crux of the story.

Infohash : C109DB64F98B998185F583047FC8A8AE4151093F






General
Format                                   : Matroska
Format version                           : Version 4 / Version 2
File size                                : 934 MiB
Duration                                 : 1 h 40 min
Overall bit rate                         : 1 299 kb/s

Video
ID                                       : 1
Format                                   : AVC
Format/Info                              : Advanced Video Codec
Format profile                           : [email protected]
Format settings                          : CABAC / 4 Ref Frames
Format settings, CABAC                   : Yes
Format settings, RefFrames               : 4 frames
Codec ID                                 : V_MPEG4/ISO/AVC
Duration                                 : 1 h 40 min
Bit rate                                 : 1 200 kb/s
Width                                    : 1 280 pixels
Height                                   : 556 pixels
Display aspect ratio                     : 2.35:1
Frame rate mode                          : Constant
Frame rate                               : 25.000 FPS
Color space                              : YUV
Chroma subsampling                       : 4:2:0
Bit depth                                : 8 bits
Scan type                                : Progressive
Bits/(Pixel*Frame)                       : 0.067
Stream size                              : 863 MiB (92%)
Writing library                          : x264 core 148 r2708 86b7198
Default                                  : Yes
Forced                                   : No

Audio
ID                                       : 2
Format                                   : AAC
Format/Info                              : Advanced Audio Codec
Format profile                           : LC
Codec ID                                 : A_AAC-2
Duration                                 : 1 h 40 min
Bit rate                                 : 96.0 kb/s
Channel(s)                               : 2 channels
Channel positions                        : Front: L R
Sampling rate                            : 44.1 kHz
Frame rate                               : 43.066 FPS (1024 SPF)
Compression mode                         : Lossy
Stream size                              : 69.0 MiB (7%)
Language                                 : Hindi
Default                                  : Yes
Forced                                   : No















Files:

Raid 2018 Hindi 720p PreDVDRip x264 AAC
  • Raid 2018 Hindi 720p PreDVDRip x264 AAC.mkv (933.6 MB)

Comments

Code:

  • udp://tracker.pirateparty.gr:6969/announce
  • udp://tracker.opentrackr.org:1337/announce
  • http://tracker.opentrackr.org/announce
  • udp://tracker.vanitycore.co:6969/announce
  • udp://public.popcorn-tracker.org:6969/announce
  • udp://9.rarbg.to:2710/announce
  • udp://9.rarbg.me:2710/announce
  • udp://9.rarbg.com:2770/announce
  • udp://inferno.demonoid.pw:3391/announce
  • udp://tracker.internetwarriors.net:1337/announce
  • udp://ipv4.tracker.harry.lu:80/announce
  • udp://p4p.arenabg.ch:1337/announce
  • http://tracker.vanitycore.co:6969/announce
  • http://public.popcorn-tracker.org:6969/announce
  • udp://tracker.zer0day.to:1337/announce