Đạo Sĩ Hạ Sơn
RegisterMillénium 3 – La Reine Dans Le Palais Des Courants Dair
John Legend

10x10.2018.1080p.AMZN.WEBRip.DDP5.1.x264-NTG

  • Category Movies
  • Type HD
  • Language English
  • Total size 2.9 GB
  • Uploaded By SeekNDstroy
  • Downloads 775
  • Last checked 52 minutes ago
  • Date uploaded 3 days ago
  • Seeders 287
  • Leechers 162

10x10

Thriller

Lewis (Luke Evans) is an outwardly ordinary guy, but in reality he is hiding an obsession - revenge - against Cathy (Kelly Reilly). Lewis kidnaps Cathy in broad daylight and takes her to his home, where he locks her in a soundproof cell and attempt to extract a dark secret from her past.

Infohash : 6F315FB99ED93C458EF97A20ABB972E91CD660A6



Lewis (Luke Evans) is an outwardly ordinary guy| but in reality he is hiding an obsession - revenge - against Cathy (Kelly Reilly). Lewis kidnaps Cathy in broad
daylight and takes her to his home| where he locks her in a soundproof cell and attempts to extract a dark secret from her past.

IMDB Rating: 5.3/10 from 145 users Updated : 2018-04-14
Genres: Thriller
Actors: Luke Evans , Kelly Reilly , Noel Clarke , Olivia Chenery , Jill Winternitz , Ruby Bustamante , Jason Maza , Skye Lucia Degruttola , Benjamin Hoetjes Keila J. Brown , Hilary Agostini , John Michael Morris , Jackson Kai , Stacy Hall , Christian Meier
Director: Suzi Ewing

Video
ID : 1
Format : AVC
Format/Info : Advanced Video Codec
Format profile : [email protected]
Format settings : CABAC / 4 Ref Frames
Format settings, CABAC : Yes
Format settings, ReFrames : 4 frames
Codec ID : V_MPEG4/ISO/AVC
Duration : 1 h 26 min
Bit rate mode : Variable
Bit rate : 4 112 kb/s
Maximum bit rate : 15.0 Mb/s
Width : 1 920 pixels
Height : 1 080 pixels
Display aspect ratio : 16:9
Frame rate mode : Constant
Frame rate : 23.976 (24000/1001) FPS
Color space : YUV
Chroma subsampling : 4:2:0
Bit depth : 8 bits
Scan type : Progressive
Bits/(Pixel*Frame) : 0.083
Stream size : 2.49 GiB (86%)
Default : Yes
Forced : No
Color range : Limited
Color primaries : BT.709
Transfer characteristics : BT.709
Matrix coefficients : BT.709

Audio
ID : 2
Format : E-AC-3
Format/Info : Enhanced Audio Coding 3
Codec ID : A_EAC3
Duration : 1 h 26 min
Bit rate mode : Constant
Bit rate : 640 kb/s
Channel(s) : 6 channels
Channel positions : Front: L C R, Side: L R, LFE
Sampling rate : 48.0 kHz
Frame rate : 187.500 FPS (256 SPF)
Compression mode : Lossy
Stream size : 396 MiB (13%)
Language : English
Service kind : Complete Main
Default : Yes
Forced : No

Text #1
ID : 3
Format : UTF-8
Codec ID : S_TEXT/UTF8
Codec ID/Info : UTF-8 Plain Text
Duration : 1 h 24 min
Bit rate : 26 b/s
Count of elements : 547
Stream size : 16.7 KiB (0%)
Language : English
Default : No
Forced : No

Text #2
ID : 4
Format : UTF-8
Codec ID : S_TEXT/UTF8
Codec ID/Info : UTF-8 Plain Text
Duration : 1 h 25 min
Bit rate : 30 b/s
Count of elements : 639
Stream size : 18.9 KiB (0%)
Title : SDH
Language : English
Default : No
Forced : No


Files:

10x10.2018.1080p.AMZN.WEBRip.DDP5.1.x264-NTG
  • 10x10.2018.1080p.AMZN.WEB-DL.DDP5.1.H.264-NTG.mkv (2.9 GB)
  • RARBG.txt (0.0 KB)

There are currently no comments. Feel free to leave one :)

Code:

  • http://tracker.trackerfix.com:80/announce
  • udp://9.rarbg.me:2710/announce
  • udp://9.rarbg.to:2710/announce