Người Tình Tin Nhắn
Khuynh Quốc Yêu Sủng – Chap 35-SPOILERWorld Trade Center
Coldplay

Insidious The Last Key 2018 1080p BluRay AAC ZEE5

  • Category Movies
  • Type h.264/x264
  • Language English
  • Total size 1.3 GB
  • Uploaded By abuhamza420
  • Downloads 20
  • Last checked 44 minutes ago
  • Date uploaded 2 hours ago
  • Seeders 1
  • Leechers 6

Insidious: The Last Key

ThrillerHorrorMystery

Parapsychologist Elise Rainier and her team travel to Five Keys, N.M., to investigate a man's claim of a haunting. Terror soon strikes when Rainier realizes that the house he lives in was her family's old home.

Infohash : 6A37FD6B2358A4F930F4840808FA4444BD6F4267



Insidious The Last Key 2018 1080p BluRay AAC ZEE5


More Info.. Go Zeee5.Info

Join Us Now









Format : Matroska
Format version : Version 4 / Version 2
File size : 1.32 GiB
Duration : 1 h 43 min
Overall bit rate : 1 829 kb/s
Encoded date : UTC 2018-05-16 10:34:57
Writing application : mkvmerge v23.0.0 ('The Bride Said No') 32-bit
Writing library : libebml v1.3.6 + libmatroska v1.4.9

Video
ID : 1
Format : AVC
Format/Info : Advanced Video Codec
Format profile : [email protected]
Format settings : CABAC / 5 Ref Frames
Format settings, CABAC : Yes
Format settings, RefFrames : 5 frames
Codec ID : V_MPEG4/ISO/AVC
Duration : 1 h 43 min
Bit rate : 1 699 kb/s
Width : 1 920 pixels
Height : 804 pixels
Display aspect ratio : 2.40:1
Frame rate mode : Constant
Frame rate : 23.976 (24000/1001) FPS
Color space : YUV
Chroma subsampling : 4:2:0
Bit depth : 8 bits
Scan type : Progressive
Bits/(Pixel*Frame) : 0.046
Stream size : 1.23 GiB (93%)
Language : English
Default : Yes
Forced : No
Color range : Limited
Color primaries : Generic film
Transfer characteristics : BT.709
Matrix coefficients : BT.709

Audio
ID : 2
Format : AAC
Format/Info : Advanced Audio Codec
Format profile : LC
Codec ID : A_AAC-2
Duration : 1 h 43 min
Bit rate : 128 kb/s
Channel(s) : 2 channels
Channel positions : Front: L R
Sampling rate : 48.0 kHz
Frame rate : 46.875 FPS (1024 SPF)
Compression mode : Lossy
Delay relative to video : 9 ms
Stream size : 94.7 MiB (7%)
Language : English
Default : Yes
Forced : No

Text
ID : 3
Format : UTF-8
Codec ID : S_TEXT/UTF8
Codec ID/Info : UTF-8 Plain Text
Duration : 55 min 14 s
Bit rate : 1 b/s
Count of elements : 8
Stream size : 632 Bytes (0%)
Default : Yes
Forced : No










Insidious The Last Key 2018 1080p BluRay AAC ZEE5



Files:

Insidious The Last Key 2018 1080p Bluray AAC ZEE5
  • Zee5.Info - Insidious The Last Key 2018 1080p Bluray AAC.mkv (1.3 GB)

There are currently no comments. Feel free to leave one :)

Code:

  • UDP://TRACKER.LEECHERS-PARADISE.ORG:6969/ANNOUNCE
  • UDP://TRACKER.COPPERSURFER.TK:6969/ANNOUNCE
  • UDP://TRACKER.OPENTRACKR.ORG:1337/ANNOUNCE
  • udp://9.rarbg.to:2710/announce
  • UDP://EDDIE4.NL:6969/ANNOUNCE
  • udp://inferno.demonoid.pw:3391/announce