Rail Wars! | Aitana Sánchez-Gijón | Morteza LatifSmoked BBQ – Die Grill-Champions | 1x03 Mirada de Angel | Django Unchained

Black Panther (2018).720p.H264.italian.Ac3-5.1.English.Ac3.sub.it...

  • Category Movies
  • Type HD
  • Language English
  • Total size 2.4 GB
  • Uploaded By robbyrs
  • Downloads 154
  • Last checked 46 minutes ago
  • Date uploaded 22 hours ago
  • Seeders 35
  • Leechers 37

Black Panther

ActionAdventureDramaScience FictionThriller

T'Challa, the new ruler of the advanced kingdom of Wakanda, must defend his land from being torn apart by enemies from outside and inside the country.

Infohash : C011A46AB5DB83EF932EE58D4724DF17798C027D

Black Panther (2018).720p.H264.italian.Ac3-5.1.English.Ac3.sub.ita.eng.MIRCrew


NO FOUND ONLY ORIGINAL RELEASE



My release is always in double track audio italian and Original audio
for select it use VLC or dvd player home
not use wmp

Black Panther (2018)

Quality MIRCrew on HD 720p da 2,4 gb







GENERE: Azione, Fantascienza, Drammatico
ANNO: 2018
REGIA: Ryan Coogler
PAESE: USA
DURATA: 135 Min



ATTORI: Chadwick Boseman, Michael B. Jordan, Andy Serkis, Angela Bassett, Lupita Nyong'o, Forest Whitaker, Martin Freeman, Sterling K. Brown, Danai Jekesai Gurira, Daniel Kaluuya, Letitia Michelle Wright, John Kani, Florence Kasumba, Sydelle Noel, Isaach De Bankolé, Connie Chiume



Dopo la morte di suo padre, mostrata in Captain America: Civil War, il giovane principe T'Challa (Chadwick Boseman) torna a casa per salire sul trono di Wakanda, un'immaginaria nazione nel continente africano, isolata ma tecnologicamente avanzata, e ricca di giacimenti di vibranio



T'Challa, the King of Wakanda, rises to the throne in the isolated, technologically advanced African nation, but his claim is challenged by a vengeful outsider who was a childhood victim of T'Challa's father's mistake.











[spoiler]
General
Unique ID : 198602762601532420692739633781136202069 (0x956980315D231FB8A20ADF38C9509955)
Complete name : Black Panther (2018).720p.h264.ita.eng.sub.ita.eng - MIRCrew\Black Panther (2018).720p.h264.ita.eng.sub.ita.eng - MIRCrew.mkv
Format : Matroska
Format version : Version 2
File size : 2.38 GiB
Duration : 2h 14mn
Overall bit rate : 2 536 Kbps
Movie name : MIRCrew
Encoded date : UTC 2018-05-16 22:03:42
Writing application : mkvmerge v5.4.0 ('Piper') built on Mar 10 2012 13:34:39
Writing library : Lavf54.63.100

Video
ID : 1
Format : AVC
Format/Info : Advanced Video Codec
Format profile : [email protected]
Format settings, CABAC : Yes
Format settings, ReFrames : 2 frames
Codec ID : V_MPEG4/ISO/AVC
Duration : 2h 14mn
Bit rate : 1 900 Kbps
Width : 1 264 pixels
Height : 528 pixels
Display aspect ratio : 2.40:1
Frame rate mode : Variable
Frame rate : 23.976 fps
Color space : YUV
Chroma subsampling : 4:2:0
Bit depth : 8 bits
Scan type : Progressive
Bits/(Pixel*Frame) : 0.119
Stream size : 1.73 GiB (73%)
Writing library : x264 core 130 r2273
Encoding settings : cabac=1 / ref=2 / deblock=1:0:0 / analyse=0x1:0x131 / me=hex / subme=7 / psy=1 / psy_rd=1.00:0.00 / mixed_ref=0 / me_range=16 / chroma_me=1 / trellis=1 / 8x8dct=0 / cqm=0 / deadzone=21,11 / fast_pskip=1 / chroma_qp_offset=-2 / threads=3 / lookahead_threads=1 / sliced_threads=0 / nr=0 / decimate=1 / interlaced=0 / bluray_compat=0 / constrained_intra=0 / bframes=3 / b_pyramid=0 / b_adapt=1 / b_bias=0 / direct=3 / weightb=1 / open_gop=0 / weightp=2 / keyint=230 / keyint_min=23 / scenecut=40 / intra_refresh=0 / rc_lookahead=40 / rc=abr / mbtree=1 / bitrate=1900 / ratetol=1.0 / qcomp=0.60 / qpmin=10 / qpmax=69 / qpstep=4 / vbv_maxrate=24000 / vbv_bufsize=24000 / nal_hrd=none / ip_ratio=1.40 / aq=1:1.00
Language : Italian
Default : Yes
Forced : No
DURATION : 02:14:33.148000000
NUMBER_OF_FRAMES : 193562
NUMBER_OF_BYTES : 11556580249
_STATISTICS_WRITING_APP : mkvmerge v9.5.0 ('Quiet Fire') 64bit
_STATISTICS_WRITING_DATE_UTC : 2018-05-15 07:08:36
_STATISTICS_TAGS : BPS DURATION NUMBER_OF_FRAMES NUMBER_OF_BYTES

Audio #1
ID : 2
Format : AC-3
Format/Info : Audio Coding 3
Mode extension : CM (complete main)
Codec ID : A_AC3
Duration : 2h 14mn
Bit rate mode : Constant
Bit rate : 448 Kbps
Channel(s) : 6 channels
Channel positions : Front: L C R, Side: L R, LFE
Sampling rate : 48.0 KHz
Bit depth : 16 bits
Compression mode : Lossy
Delay relative to video : -42ms
Stream size : 431 MiB (18%)
Title : Ita Ac3 5.1
Language : Italian
Default : Yes
Forced : No

Audio #2
ID : 3
Format : AC-3
Format/Info : Audio Coding 3
Mode extension : CM (complete main)
Codec ID : A_AC3
Duration : 2h 14mn
Bit rate mode : Constant
Bit rate : 192 Kbps
Channel(s) : 2 channels
Channel positions : Front: L R
Sampling rate : 48.0 KHz
Bit depth : 16 bits
Compression mode : Lossy
Delay relative to video : -5ms
Stream size : 185 MiB (8%)
Title : Eng Ac3 5.1
Language : English
Default : No
Forced : No
DURATION : 02:14:33.153000000
NUMBER_OF_FRAMES : 756858
NUMBER_OF_BYTES : 1522798296
_STATISTICS_WRITING_APP : mkvmerge v9.5.0 ('Quiet Fire') 64bit
_STATISTICS_WRITING_DATE_UTC : 2018-05-15 07:08:36
_STATISTICS_TAGS : BPS DURATION NUMBER_OF_FRAMES NUMBER_OF_BYTES

Menu
00:00:00.000 : :00:00:00.000
00:07:05.342 : :00:07:05.342
00:14:28.201 : :00:14:28.201
00:20:13.838 : :00:20:13.838
00:29:27.099 : :00:29:27.099
00:39:02.590 : :00:39:02.590
00:50:56.804 : :00:50:56.804
00:59:52.756 : :00:59:52.756
01:08:53.129 : :01:08:53.129
01:16:19.950 : :01:16:19.950
01:25:27.706 : :01:25:27.706
01:35:23.259 : :01:35:23.259
01:45:16.300 : :01:45:16:300
01:55:01.150 : :01:55:01:150
02:05:00.150 : :02:05:00:150


[/spoiler]



Files:

Black Panther (2018).720p.h264.ita.eng.sub.ita.eng - MIRCrew
  • Black Panther (2018).720p.h264.ita.eng.sub.ita.eng - MIRCrew.eng.srt (103.4 KB)
  • Black Panther (2018).720p.h264.ita.eng.sub.ita.eng - MIRCrew.ita.srt (99.6 KB)
  • Black Panther (2018).720p.h264.ita.eng.sub.ita.eng - MIRCrew.mkv (2.4 GB)
  • Black Panther (2018).720p.h264.ita.eng.sub.ita.eng - MIRCrew.srt (4.5 KB)
  • MIRCrew-ilCorSaRoNeRo.txt (0.1 KB)

There are currently no comments. Feel free to leave one :)

Code:

  • udp://tracker.coppersurfer.tk:6969/announce
  • udp://tracker.torrent.eu.org:451/announce
  • udp://tracker.pirateparty.gr:6969/announce
  • udp://tracker.opentrackr.org:1337/announce
  • udp://tracker.leechers-paradise.org:6969/announce
  • udp://tracker.eddie4.nl:6969/announce
  • udp://shadowshq.yi.org:6969/announce
  • udp://shadowshq.eddie4.nl:6969/announce
  • udp://inferno.demonoid.pw:3391/announce
  • udp://eddie4.nl:6969/announce
  • udp://9.rarbg.to:2730/announce
  • udp://9.rarbg.com:2710/announce
  • udp://9.rarbg.me:2780/announce
  • udp://62.138.0.158:6969/announce
  • udp://151.80.120.114:2710/announce