Jeff Stagg | LBOY-025 | Megalo Box Saison 1 Vostfr Streaming HDBernard M. Baruch | 211 (2018) Hindi Dubbed ENG Full Movei 300MB DVDRip 480p | Jack Lambert

Idi Naa Love Story (2018) Telugu HDRip x264 AAC by india4movie

  • Category Movies
  • Type h.264/x264
  • Language Telugu
  • Total size 696.5 MB
  • Uploaded By shmasti
  • Downloads 26
  • Last checked 53 minutes ago
  • Date uploaded 5 hours ago
  • Seeders 2
  • Leechers 17

Infohash : 91A8723AF8A33DDD21E5AB5FFF0B537C6FC04538



General
Complete name : Idi Naa Love Story (2018) Telugu HDRip x264 AAC by india4movie.mkv
Format : Matroska
Format version : Version 4 / Version 2
File size : 696 MiB
Duration : 2 h 11 min
Overall bit rate : 743 kb/s
Encoded date : UTC 2018-05-28 05:26:50
Writing application : mkvmerge v8.1.0 ('Psychedelic Postcard') 32bit
Writing library : libebml v1.3.1 + libmatroska v1.4.2

Video
ID : 1
Format : AVC
Format/Info : Advanced Video Codec
Format profile : [email protected]
Format settings, CABAC : Yes
Format settings, RefFrames : 4 frames
Codec ID : V_MPEG4/ISO/AVC
Duration : 2 h 11 min
Bit rate : 614 kb/s
Width : 720 pixels
Height : 320 pixels
Display aspect ratio : 2.25:1
Frame rate mode : Constant
Frame rate : 24.000 FPS
Color space : YUV
Chroma subsampling : 4:2:0
Bit depth : 8 bits
Scan type : Progressive
Bits/(Pixel*Frame) : 0.111
Stream size : 575 MiB (83%)
Writing library : x264 core 112
Language : English
Default : Yes
Forced : No
Color range : Limited
Color primaries : BT.709
Transfer characteristics : BT.709
Matrix coefficients : BT.709

Audio
ID : 2
Format : AAC
Format/Info : Advanced Audio Codec
Format profile : LC
Codec ID : A_AAC
Duration : 2 h 11 min
Bit rate : 127 kb/s
Channel(s) : 2 channels
Channel positions : Front: L R
Sampling rate : 48.0 kHz
Frame rate : 46.875 FPS (1024 SPF)
Compression mode : Lossy
Stream size : 119 MiB (17%)
Language : Telugu
Default : Yes
Forced : No

Screen Shoots

Files:

  • Idi Naa Love Story (2018) Telugu HDRip x264 AAC by india4movie.mkv (696.5 MB)

There are currently no comments. Feel free to leave one :)

Code:

  • udp://tracker.coppersurfer.tk:6969/announce
  • udp://tracker.opentrackr.org:1337/announce
  • udp://9.rarbg.me:2710/announce
  • udp://tracker.torrent.eu.org:451/announce
  • udp://open.stealth.si:80/announce
  • udp://public.popcorn-tracker.org:6969/announce
  • udp://p4p.arenabg.ch:1337/announce
  • udp://tracker.zer0day.to:1337/announce
  • udp://tracker.pirateparty.gr:6969/announce
  • udp://tracker.leechers-paradise.org:6969/announce
  • udp://tracker.tiny-vps.com:6969/announce
  • udp://bt.firebit.co.uk:6969/announce
  • udp://inferno.demonoid.pw:3397/announce
  • udp://shadowshq.yi.org:6969/announce
  • udp://9.rarbg.to:2780/announce